Jump to content
Sign in to follow this  
^^GoRiLLaZ^^

I Dont Feel at Home in This World Anymore 2017 1080p WEBRip X264-DEFLATE

Recommended Posts

I Dont Feel at Home in This World Anymore 2017 1080p WEBRip X264-DEFLATE

2Xjs1.jpg

IMDB information:


Title: I Don't Feel at Home in This World Anymore. (2017)
Genres: Comedy, Crime, Drama, Thriller
Description: When a depressed woman is burgled, she finds a new sense of purpose by tracking down the thieves alongside her obnoxious neighbour. But they soon find themselves dangerously out of their depth against a pack of degenerate criminals.
Director: Macon Blair
Writer: Macon Blair
Actors: Melanie Lynskey, Chris Doubek, Marilyn Faith Hickey, Jared Roylance
Rating: 6.9
Runtime: 93 min
Language: English



IMDb:
https://www.imdb.com/title/tt5710514/




mkv | 5.43 GB | 1920x802
01:36:37 | V_MPEG4/ISO/AVC | 01:36:37
7498 Kbps | 23.976 fps | 2.40:1

33651657852760261460_thumb.png
74940300926271041212_thumb.png
86296945154182338366_thumb.png
55263358826764190285_thumb.png
57966107895084427275_thumb.png
46623414297588528798_thumb.png

[mediainfo]
Video
ID : 1
Format : AVC
Format/Info : Advanced Video Codec
Format profile : [email protected]
Format settings, CABAC : Yes
Format settings, ReFrames : 5 frames
Codec ID : V_MPEG4/ISO/AVC
Duration : 1h 36mn
Bit rate : 7 499 Kbps
Width : 1 920 pixels
Height : 802 pixels
Display aspect ratio : 2.40:1
Frame rate mode : Constant
Frame rate : 23.976 (24000/1001) fps
Color space : YUV
Chroma subsampling : 4:2:0
Bit depth : 8 bits
Scan type : Progressive
Bits/(Pixel*Frame) : 0.203
Stream size : 5.06 GiB (93%)
Writing library : x264 core 148 r2762+10 5d7902f / tmod 5d7902f X86_64
Encoding settings : cabac=1 / ref=5 / deblock=1:-3:-3 / analyse=0x3:0x133 / me=umh / subme=11 / psy=1 / fade_compensate=0.00 / psy_rd=1.15:0.05 / mixed_ref=1 / me_range=48 / chroma_me=1 / trellis=2 / 8x8dct=1 / cqm=0 / deadzone=21,11 / fast_pskip=0 / chroma_qp_offset=-3 / threads=12 / lookahead_threads=3 / sliced_threads=0 / nr=0 / decimate=0 / interlaced=0 / bluray_compat=0 / constrained_intra=0 / fgo=0 / bframes=10 / b_pyramid=2 / b_adapt=2 / b_bias=0 / direct=3 / weightb=1 / open_gop=0 / weightp=2 / keyint=250 / keyint_min=23 / scenecut=40 / intra_refresh=0 / rc=crf / mbtree=0 / crf=17.0000 / qcomp=0.70 / qpmin=0:0:0 / qpmax=69:69:69 / qpstep=4 / ip_ratio=1.40 / pb_ratio=1.30 / aq=3:0.75 / aq-sensitivity=10.00 / aq-factor=1.00:1.00:1.00 / aq2=0 / aq3=0
Language : English
Default : Yes
Forced : No

Audio
ID : 2
Format : AC-3
Format/Info : Audio Coding 3
Mode extension : CM (complete main)
Format settings, Endianness : Big
Codec ID : A_AC3
Duration : 1h 36mn
Bit rate mode : Constant
Bit rate : 384 Kbps
Channel(s) : 6 channels
Channel positions : Front: L C R, Side: L R, LFE
Sampling rate : 48.0 KHz
Frame rate : 31.250 fps (1536 spf)
Compression mode : Lossy
Stream size : 265 MiB (5%)
Language : English
Default : Yes
Forced : No

Text #1
ID : 3
Format : UTF-8
Codec ID : S_TEXT/UTF8
Codec ID/Info : UTF-8 Plain Text
Title : English
Language : English
Default : No
Forced : No

Text #2
ID : 4
Format : UTF-8
Codec ID : S_TEXT/UTF8
Codec ID/Info : UTF-8 Plain Text
Title : English (SDH)
Language : English
Default : No
Forced : No

Text #3
ID : 5
Format : UTF-8
Codec ID : S_TEXT/UTF8
Codec ID/Info : UTF-8 Plain Text
Title : French
Language : French
Default : No
Forced : No

Text #4
ID : 6
Format : UTF-8
Codec ID : S_TEXT/UTF8
Codec ID/Info : UTF-8 Plain Text
Title : German
Language : German
Default : No
Forced : No

Text #5
ID : 7
Format : UTF-8
Codec ID : S_TEXT/UTF8
Codec ID/Info : UTF-8 Plain Text
Title : Italian
Language : Italian
Default : No
Forced : No

Text #6
ID : 8
Format : UTF-8
Codec ID : S_TEXT/UTF8
Codec ID/Info : UTF-8 Plain Text
Title : Spanish
Language : Spanish
Default : No
Forced : No

[/mediainfo]



Screenshots:
2Xjs2.jpg

RapidGator:
https://rapidgator.net/file/3c78956479933fe1fafb43415c9a9582/I.Dont.Feel.at.Home.in.This.World.Anymore.2017.1080p.WEBRip.X264-DEFLATE.part1.rar
https://rapidgator.net/file/197634fc22ffe578a2dd790a464b305c/I.Dont.Feel.at.Home.in.This.World.Anymore.2017.1080p.WEBRip.X264-DEFLATE.part2.rar
https://rapidgator.net/file/5a4bd8ac350c41b9f6a5f9f14d4db528/I.Dont.Feel.at.Home.in.This.World.Anymore.2017.1080p.WEBRip.X264-DEFLATE.part3.rar
https://rapidgator.net/file/60a640a2546e78a8fc32a2cfd587cd21/I.Dont.Feel.at.Home.in.This.World.Anymore.2017.1080p.WEBRip.X264-DEFLATE.part4.rar

Keep2Share:
https://k2s.cc/file/1c4f706520357/I.Dont.Feel.at.Home.in.This.World.Anymore.2017.1080p.WEBRip.X264-DEFLATE.part1.rar
https://k2s.cc/file/1dd2556a2702b/I.Dont.Feel.at.Home.in.This.World.Anymore.2017.1080p.WEBRip.X264-DEFLATE.part2.rar
https://k2s.cc/file/99ddde477a1b8/I.Dont.Feel.at.Home.in.This.World.Anymore.2017.1080p.WEBRip.X264-DEFLATE.part3.rar
https://k2s.cc/file/6472135fd8649/I.Dont.Feel.at.Home.in.This.World.Anymore.2017.1080p.WEBRip.X264-DEFLATE.part4.rar

c835ccbf151f2d62ad36640074906fcf.png

Share this post


Link to post
Share on other sites

Join the conversation

You can post now and register later. If you have an account, sign in now to post with your account.

Guest
Reply to this topic...

×   Pasted as rich text.   Paste as plain text instead

  Only 75 emoji are allowed.

×   Your link has been automatically embedded.   Display as a link instead

×   Your previous content has been restored.   Clear editor

×   You cannot paste images directly. Upload or insert images from URL.

Sign in to follow this  

Elite7Hackers Netwok

Hack the imagination!

Support and inquiries

Open support ticket here or email us at [email protected]

Highlights

Highlighted/recommended lights

×
×
  • Create New...

Important Information

By using this site, you agree to our Privacy Policy and Terms of Use.