Jump to content

We're sorry for technical difficulties latest site upgrade caused.

We have now resolved the issue. 

If you're still experiencing issues, please clear your cache by following instructions on this link.  
Shall the issue persist after this step, welcome report it. 

Archived

This topic is now archived and is closed to further replies.

mitsumi

Hands On Cubase Vol. 1 - Grundlagen und Einführ

Recommended Posts

1811071103130094.jpg

Hands On Cubase Vol. 1 - Grundlagen und Einführ
DVD5 in ISO-image | German | VIDEO_TS | 720 x 576 | AVC ~3000 kbps | 25 fps
MPEG Audio 192 Kbps 48.0 KHz | 2 channels | ~1 hour | 2.61 GB
Genre: eLearning Video / Sound Processing, Music Production
Mit diesem DVD Training lernen Sie auf einfache und anschauliche Weise die Bedienung von Steinbergs professioneller Musiksoftware, Schritt für Schritt und für jeden verständlich. In 40 Lektionen führen wir Sie anhand von konkreten Praxisbeispielen zur Erstellung eines kompletten Songs. Alle für Ein- und Umsteiger wichtigen Punkte werden dabei ausführlich behandelt.

Sie lernen wichtige Grundlagen und Funktionen die Sie sofort für Ihre tägliche Arbeit mit Cubase umsetzen können. Neben der Bedienung von Cubase werden zudem auch nützliche Tipps zur Konfiguration und Einrichtung Ihres PCs vermittelt. Das beiliegende Booklet bietet eine gedruckte Übersicht über die enthaltenen Lektionen.

Features
* Die 40 Lektionen lassen sich als zusammenhängender Film betrachten, oder nach Bedarf einzeln anwählen
* ideal zum Nachschlagen von Funktionen
* Dieser Einsteiger Lernkurs wurde mit Cubase SX 3 erstellt
* Die hier gezeigten Grundlagen und Funktionen sind jedoch zum Großteil auch für Anwender von Cubase SX, SL und SE geeignet
* Gesamtlaufzeit: über 2 Stunden
* Vorraussetzung: PC mit DVD Abspieler oder TV mit DVD-Player

General
Complete name : VTS_01_2.VOB
Format : MPEG-PS
File size : 977 MiB
Duration : 23 s 304 ms
Overall bit rate mode : Constant
Overall bit rate : 352 Mb/s

Video
ID : 224 (0xE0)
Format : MPEG Video
Format version : Version 2
Format profile : [email protected]
Format settings : CustomMatrix / BVOP
Format settings, BVOP : Yes
Format settings, Matrix : Custom
Format settings, GOP : M=3, N=15
Format settings, picture structure : Frame
Duration : 23 s 240 ms
Bit rate mode : Constant
Bit rate : 344 Mb/s
Maximum bit rate : 3 000 kb/s
Width : 720 pixels
Height : 576 pixels
Display aspect ratio : 4:3
Frame rate : 25.000 FPS
Standard : PAL
Color space : YUV
Chroma subsampling : 4:2:0
Bit depth : 8 bits
Scan type : Interlaced
Scan order : Bottom Field First
Compression mode : Lossy
Bits/(Pixel*Frame) : 33.217
Time code of first frame : 00:00:37:20
Time code source : Group of pictures header
GOP, Open/Closed : Open
Stream size : 954 MiB (98%)

Audio
ID : 192 (0xC0)
Format : MPEG Audio
Format version : Version 1
Format profile : Layer 2
Duration : 23 s 304 ms
Bit rate mode : Constant
Bit rate : 192 kb/s
Channel(s) : 2 channels
Sampling rate : 48.0 kHz
Frame rate : 41.667 FPS (1152 SPF)
Compression mode : Lossy
Delay relative to video : -152 ms
Stream size : 546 KiB (0%)

Menu

Screenshots

1811071103140111.jpg

1811071103150097.jpg

1811071103160099.jpg


Download link:

http://rapidgator.net/file/344283431ccc635470462dacced217fc/x5cy8.Hands.On.Cubase.Vol..1..Grundlagen.und.Einfhr.part1.rar.html
http://rapidgator.net/file/6f5a0f77fc8aa2e00ff0775fd1be8848/x5cy8.Hands.On.Cubase.Vol..1..Grundlagen.und.Einfhr.part2.rar.html
http://rapidgator.net/file/e45f84ab38785367c55c5d5866669f78/x5cy8.Hands.On.Cubase.Vol..1..Grundlagen.und.Einfhr.part3.rar.html
http://rapidgator.net/file/851b7fee441bd8c433621ac97350058a/x5cy8.Hands.On.Cubase.Vol..1..Grundlagen.und.Einfhr.part4.rar.html
http://rapidgator.net/file/698bc2434174213548942cdf61f8dd43/x5cy8.Hands.On.Cubase.Vol..1..Grundlagen.und.Einfhr.part5.rar.html


http://nitroflare.com/view/5993451CA101BF8/x5cy8.Hands.On.Cubase.Vol..1..Grundlagen.und.Einfhr.part1.rar
http://nitroflare.com/view/A448C1DF83220F6/x5cy8.Hands.On.Cubase.Vol..1..Grundlagen.und.Einfhr.part2.rar
http://nitroflare.com/view/1DE914257A201D5/x5cy8.Hands.On.Cubase.Vol..1..Grundlagen.und.Einfhr.part3.rar
http://nitroflare.com/view/2370F39BFE7F4A9/x5cy8.Hands.On.Cubase.Vol..1..Grundlagen.und.Einfhr.part4.rar
http://nitroflare.com/view/1178D73BD6B5CA7/x5cy8.Hands.On.Cubase.Vol..1..Grundlagen.und.Einfhr.part5.rar


https://uploadgig.com/file/download/331696cfD2f64eC2/x5cy8.Hands.On.Cubase.Vol..1..Grundlagen.und.Einfhr.part1.rar
https://uploadgig.com/file/download/0f56562882e694Cc/x5cy8.Hands.On.Cubase.Vol..1..Grundlagen.und.Einfhr.part2.rar
https://uploadgig.com/file/download/54eaa3c1add609Ea/x5cy8.Hands.On.Cubase.Vol..1..Grundlagen.und.Einfhr.part3.rar
https://uploadgig.com/file/download/1CD286f7290b305c/x5cy8.Hands.On.Cubase.Vol..1..Grundlagen.und.Einfhr.part4.rar
https://uploadgig.com/file/download/bd11C6367aae49df/x5cy8.Hands.On.Cubase.Vol..1..Grundlagen.und.Einfhr.part5.rar


Links are Interchangeable - No Password - Single Extraction

Share this post


Link to post
Share on other sites

Elite7Hackers Netwok

Hack the imagination!

Support and inquiries

Open support ticket here or email us at [email protected]

Highlights

Highlighted/recommended lights

×
×
  • Create New...

Important Information

By using this site, you agree to our Privacy Policy and Terms of Use.